Loading...
Error
 

Скачать торрент Def Leppard - And there will be a next time... Live from Detroit [2017, Hard Rock, Blu-Ray 1080i]

 
Автор Сообщение

trygg

post 08-Май-19 18:17


Def Leppard - And there will be a next time... Live from Detroit


pic
pic
Год выпуска: 2017
Страна: UK pic
Жанр: Hard Rock
Продолжительность: 01:28:51

Режиссер: Barry Ehrmann
pic
DEF LEPPARD – одна из самых успешных британских рок-групп 80-х и 90-х годов. Их альбомы Pyromania и Hysteria стали платиновыми и возглавили музыкальные чарты, а синглы заняли высшие позиции хит-парадов: «Love Bites» (1-е место в США), «Pour Some Sugar On Me» (2-е место в США), «Armageddon It» (3-е место в США), «Animal» (первая песня, попавшая в Топ 10 хитов в Великобритании). Всего продано более 100 миллионов копий альбомов DEF LEPPARD во всем мире. Видео группы на песню «Bringin 'On The Heartbreak» стало одним из первых видео металл групп, которое с удовольствием крутили на канале MTV в 1982.

Качество видео: Blu-Ray 1080i
Контейнер: BDMV
Видео кодек: MPEG4 AVC
Аудио кодек: PCM Audio, DTS-HD Master Audio
Видео: MPEG-4 AVC Video / 29999 kbps / 1920 x 1080 / 29,970 fps / 16:9 / High Profile 4.1
Аудио 1: English / LPCM Audio / 2.0 / 48 kHz / 1536 kbps / 16-bit
Аудио 2: English / DTS-HD Master Audio / 5.1 / 48 kHz / 2408 kbps / 16-bit (DTS Core: 5.1 / 48 kHz / 1509 kbps / 16-bit)

Трэклист
pic
1. Let's Go 5:01
2. Animal 4:03
3. Let It Go 5:36
4. Dangerous 3:39
5. Foolin' 4:44
6. Love Bites 5:39
7. Armageddon It 5:10
8. Rock On 3:36
9. Man Enough 3:54
10. Rocket 4:57
11. Bringin' On The Heartbreak 4:29
12. Switch 625 5:30
13. Medley: Hysteria / Heroes 5:58
14. Let's Get Rocked 4:35
15. Pour Some Sugar On Me 4:24
16. Rock Of Ages 4:54
17. Photograph 5:25

• Music Videos:

18. Let's Go (Lyrics Video) 5:04
19. Let's Go 5:07
20. Dangerous 3:33
21. Man Enough 4:07
22. We Belong 5:13
BDInfo:
Disc Title: ERBRD5317
Disc Size: 30 360 811 164 bytes
Protection: AACS
BD-Java: No
BDInfo: 0.5.8

Notes:

BDINFO HOME:
Cinema Squid

INCLUDES FORUMS REPORT FOR:
AVS Forum Blu-ray Audio and Video Specifications Thread

********************
PLAYLIST: 00000.MPLS
********************

<--- BEGIN FORUMS PASTE --->

Код:

                                                                                                                Total   Video
Title                                                           Codec   Length  Movie Size      Disc Size       Bitrate Bitrate Main Audio Track                          Secondary Audio Track
-----                                                           ------  ------- --------------  --------------  ------- ------- ------------------                        ---------------------
00000.MPLS                                                      AVC     1:28:51 23 976 486 912  30 360 811 164  35,98   30,00   LPCM 2.0 1536Kbps (48kHz/16-bit)          DTS-HD Master 5.1 2408Kbps (48kHz/16-bit)


Код:



DISC INFO:

Disc Title:     ERBRD5317
Disc Size:      30 360 811 164 bytes
Protection:     AACS
BD-Java:        No
BDInfo:         0.5.8

PLAYLIST REPORT:

Name:                   00000.MPLS
Length:                 1:28:51.025 (h:m:s.ms)
Size:                   23 976 486 912 bytes
Total Bitrate:          35,98 Mbps

VIDEO:

Codec                   Bitrate             Description
-----                   -------             -----------
MPEG-4 AVC Video        29999 kbps          1080i / 29,970 fps / 16:9 / High Profile 4.1

AUDIO:

Codec                           Language        Bitrate         Description
-----                           --------        -------         -----------
LPCM Audio                      English         1536 kbps       2.0 / 48 kHz / 1536 kbps / 16-bit
DTS-HD Master Audio             English         2408 kbps       5.1 / 48 kHz / 2408 kbps / 16-bit (DTS Core: 5.1 / 48 kHz / 1509 kbps / 16-bit)

FILES:

Name            Time In         Length          Size            Total Bitrate
----            -------         ------          ----            -------------
00000.M2TS      0:00:00.000     1:28:51.025     23 976 486 912  35 980

CHAPTERS:

Number          Time In         Length          Avg Video Rate  Max 1-Sec Rate  Max 1-Sec Time  Max 5-Sec Rate  Max 5-Sec Time  Max 10Sec Rate  Max 10Sec Time  Avg Frame Size  Max Frame Size  Max Frame Time
------          -------         ------          --------------  --------------  --------------  --------------  --------------  --------------  --------------  --------------  --------------  --------------
1               0:00:00.000     0:05:04.303     29 711 kbps     40 686 kbps     00:04:47.520    34 039 kbps     00:04:43.516    33 063 kbps     00:01:58.318    123 908 bytes   461 745 bytes   00:03:59.005
2               0:05:04.303     0:04:10.316     30 571 kbps     35 833 kbps     00:08:42.154    33 295 kbps     00:08:38.050    32 967 kbps     00:07:13.232    127 507 bytes   389 559 bytes   00:06:01.027
3               0:09:14.620     0:05:46.913     31 346 kbps     38 006 kbps     00:10:26.258    33 695 kbps     00:11:12.705    33 214 kbps     00:11:07.667    130 740 bytes   458 375 bytes   00:10:50.950
4               0:15:01.533     0:04:06.079     30 923 kbps     36 605 kbps     00:18:21.266    33 664 kbps     00:16:12.705    33 202 kbps     00:16:07.700    128 973 bytes   369 776 bytes   00:17:19.938
5               0:19:07.613     0:04:58.031     29 440 kbps     38 229 kbps     00:20:30.829    34 528 kbps     00:23:42.754    33 492 kbps     00:23:37.783    122 791 bytes   463 676 bytes   00:22:56.675
6               0:24:05.644     0:05:55.688     30 283 kbps     35 919 kbps     00:25:56.988    33 479 kbps     00:28:53.264    33 104 kbps     00:26:01.359    126 303 bytes   409 052 bytes   00:28:58.136
7               0:30:01.332     0:05:42.008     31 191 kbps     45 675 kbps     00:35:12.543    35 273 kbps     00:35:08.539    33 470 kbps     00:35:03.501    130 091 bytes   531 022 bytes   00:35:13.277
8               0:35:43.341     0:03:45.625     27 068 kbps     37 346 kbps     00:39:19.256    33 937 kbps     00:39:15.252    33 269 kbps     00:39:10.247    112 898 bytes   565 254 bytes   00:38:30.541
9               0:39:28.966     0:04:12.719     29 690 kbps     38 429 kbps     00:42:22.773    33 875 kbps     00:42:18.702    33 303 kbps     00:42:13.764    123 832 bytes   386 850 bytes   00:42:23.440
10              0:43:41.685     0:05:12.645     29 721 kbps     40 566 kbps     00:47:06.690    34 314 kbps     00:47:02.619    33 256 kbps     00:46:57.681    123 960 bytes   452 616 bytes   00:47:07.291
11              0:48:54.331     0:04:44.350     30 834 kbps     37 354 kbps     00:51:50.474    33 619 kbps     00:51:46.403    33 176 kbps     00:51:41.465    128 604 bytes   415 902 bytes   00:50:21.251
12              0:53:38.682     0:05:42.275     29 001 kbps     42 016 kbps     00:58:07.650    34 007 kbps     00:58:29.239    33 260 kbps     00:58:24.267    120 959 bytes   411 581 bytes   00:58:34.077
13              0:59:20.957     0:06:34.393     29 393 kbps     42 192 kbps     01:00:31.394    34 173 kbps     01:00:27.390    33 511 kbps     01:04:35.872    122 592 bytes   466 053 bytes   01:04:36.672
14              1:05:55.351     0:04:48.354     31 497 kbps     39 521 kbps     01:10:15.911    34 335 kbps     01:10:11.941    33 346 kbps     01:10:06.969    131 370 bytes   437 511 bytes   01:08:26.669
15              1:10:43.706     0:05:23.556     30 051 kbps     38 522 kbps     01:13:24.266    33 827 kbps     01:12:59.408    33 294 kbps     01:13:15.224    125 337 bytes   398 011 bytes   01:13:04.179
16              1:16:07.262     0:04:52.792     31 438 kbps     43 954 kbps     01:17:34.816    34 960 kbps     01:17:30.812    33 545 kbps     01:17:25.807    131 122 bytes   386 657 bytes   01:17:35.550
17              1:21:00.055     0:07:50.970     28 315 kbps     36 623 kbps     01:22:28.610    33 552 kbps     01:22:24.606    33 180 kbps     01:22:19.567    118 104 bytes   377 195 bytes   01:22:29.244

STREAM DIAGNOSTICS:

File            PID             Type            Codec           Language                Seconds                 Bitrate                 Bytes           Packets
----            ---             ----            -----           --------                --------------          --------------          -------------   -----
00000.M2TS      4113 (0x1011)   0x1B            AVC                                     5330,892                30 000                  19 990 615 123  108 738 431
00000.M2TS      4352 (0x1100)   0x80            LPCM            eng (English)           5330,892                1 542                   1 027 822 584   6 397 236
00000.M2TS      4353 (0x1101)   0x86            DTS-HD MA       eng (English)           5330,892                2 408                   1 604 733 668   9 563 259

<---- END FORUMS PASTE ---->

QUICK SUMMARY:

Disc Title: ERBRD5317
Disc Size: 30 360 811 164 bytes
Protection: AACS
BD-Java: No
Playlist: 00000.MPLS
Size: 23 976 486 912 bytes
Length: 1:28:51.025
Total Bitrate: 35,98 Mbps
Video: MPEG-4 AVC Video / 29999 kbps / 1080i / 29,970 fps / 16:9 / High Profile 4.1
Audio: English / LPCM Audio / 2.0 / 48 kHz / 1536 kbps / 16-bit
Audio: English / DTS-HD Master Audio / 5.1 / 48 kHz / 2408 kbps / 16-bit (DTS Core: 5.1 / 48 kHz / 1509 kbps / 16-bit)

********************
PLAYLIST: 00011.MPLS
********************

<--- BEGIN FORUMS PASTE --->

Код:

                                                                                                                Total   Video
Title                                                           Codec   Length  Movie Size      Disc Size       Bitrate Bitrate Main Audio Track                          Secondary Audio Track
-----                                                           ------  ------- --------------  --------------  ------- ------- ------------------                        ---------------------
00011.MPLS                                                      AVC     1:28:51 23 976 486 912  30 360 811 164  35,98   30,00   LPCM 2.0 1536Kbps (48kHz/16-bit)          DTS-HD Master 5.1 2408Kbps (48kHz/16-bit)


Код:



DISC INFO:

Disc Title:     ERBRD5317
Disc Size:      30 360 811 164 bytes
Protection:     AACS
BD-Java:        No
BDInfo:         0.5.8

PLAYLIST REPORT:

Name:                   00011.MPLS
Length:                 1:28:51.025 (h:m:s.ms)
Size:                   23 976 486 912 bytes
Total Bitrate:          35,98 Mbps

VIDEO:

Codec                   Bitrate             Description
-----                   -------             -----------
MPEG-4 AVC Video        29999 kbps          1080i / 29,970 fps / 16:9 / High Profile 4.1

AUDIO:

Codec                           Language        Bitrate         Description
-----                           --------        -------         -----------
LPCM Audio                      English         1536 kbps       2.0 / 48 kHz / 1536 kbps / 16-bit
DTS-HD Master Audio             English         2408 kbps       5.1 / 48 kHz / 2408 kbps / 16-bit (DTS Core: 5.1 / 48 kHz / 1509 kbps / 16-bit)

FILES:

Name            Time In         Length          Size            Total Bitrate
----            -------         ------          ----            -------------
00000.M2TS      0:00:00.000     1:28:51.025     23 976 486 912  35 980

CHAPTERS:

Number          Time In         Length          Avg Video Rate  Max 1-Sec Rate  Max 1-Sec Time  Max 5-Sec Rate  Max 5-Sec Time  Max 10Sec Rate  Max 10Sec Time  Avg Frame Size  Max Frame Size  Max Frame Time
------          -------         ------          --------------  --------------  --------------  --------------  --------------  --------------  --------------  --------------  --------------  --------------
1               0:00:00.000     0:05:04.303     29 711 kbps     40 686 kbps     00:04:47.520    34 039 kbps     00:04:43.516    33 063 kbps     00:01:58.318    123 908 bytes   461 745 bytes   00:03:59.005
2               0:05:04.303     0:04:10.316     30 571 kbps     35 833 kbps     00:08:42.154    33 295 kbps     00:08:38.050    32 967 kbps     00:07:13.232    127 507 bytes   389 559 bytes   00:06:01.027
3               0:09:14.620     0:05:46.913     31 346 kbps     38 006 kbps     00:10:26.258    33 695 kbps     00:11:12.705    33 214 kbps     00:11:07.667    130 740 bytes   458 375 bytes   00:10:50.950
4               0:15:01.533     0:04:06.079     30 923 kbps     36 605 kbps     00:18:21.266    33 664 kbps     00:16:12.705    33 202 kbps     00:16:07.700    128 973 bytes   369 776 bytes   00:17:19.938
5               0:19:07.613     0:04:58.031     29 440 kbps     38 229 kbps     00:20:30.829    34 528 kbps     00:23:42.754    33 492 kbps     00:23:37.783    122 791 bytes   463 676 bytes   00:22:56.675
6               0:24:05.644     0:05:55.688     30 283 kbps     35 919 kbps     00:25:56.988    33 479 kbps     00:28:53.264    33 104 kbps     00:26:01.359    126 303 bytes   409 052 bytes   00:28:58.136
7               0:30:01.332     0:05:42.008     31 191 kbps     45 675 kbps     00:35:12.543    35 273 kbps     00:35:08.539    33 470 kbps     00:35:03.501    130 091 bytes   531 022 bytes   00:35:13.277
8               0:35:43.341     0:03:45.625     27 068 kbps     37 346 kbps     00:39:19.256    33 937 kbps     00:39:15.252    33 269 kbps     00:39:10.247    112 898 bytes   565 254 bytes   00:38:30.541
9               0:39:28.966     0:04:12.719     29 690 kbps     38 429 kbps     00:42:22.773    33 875 kbps     00:42:18.702    33 303 kbps     00:42:13.764    123 832 bytes   386 850 bytes   00:42:23.440
10              0:43:41.685     0:05:12.645     29 721 kbps     40 566 kbps     00:47:06.690    34 314 kbps     00:47:02.619    33 256 kbps     00:46:57.681    123 960 bytes   452 616 bytes   00:47:07.291
11              0:48:54.331     0:04:44.350     30 834 kbps     37 354 kbps     00:51:50.474    33 619 kbps     00:51:46.403    33 176 kbps     00:51:41.465    128 604 bytes   415 902 bytes   00:50:21.251
12              0:53:38.682     0:05:42.275     29 001 kbps     42 016 kbps     00:58:07.650    34 007 kbps     00:58:29.239    33 260 kbps     00:58:24.267    120 959 bytes   411 581 bytes   00:58:34.077
13              0:59:20.957     0:06:34.393     29 393 kbps     42 192 kbps     01:00:31.394    34 173 kbps     01:00:27.390    33 511 kbps     01:04:35.872    122 592 bytes   466 053 bytes   01:04:36.672
14              1:05:55.351     0:04:48.354     31 497 kbps     39 521 kbps     01:10:15.911    34 335 kbps     01:10:11.941    33 346 kbps     01:10:06.969    131 370 bytes   437 511 bytes   01:08:26.669
15              1:10:43.706     0:05:23.556     30 051 kbps     38 522 kbps     01:13:24.266    33 827 kbps     01:12:59.408    33 294 kbps     01:13:15.224    125 337 bytes   398 011 bytes   01:13:04.179
16              1:16:07.262     0:04:52.792     31 438 kbps     43 954 kbps     01:17:34.816    34 960 kbps     01:17:30.812    33 545 kbps     01:17:25.807    131 122 bytes   386 657 bytes   01:17:35.550
17              1:21:00.055     0:07:50.970     28 315 kbps     36 623 kbps     01:22:28.610    33 552 kbps     01:22:24.606    33 180 kbps     01:22:19.567    118 104 bytes   377 195 bytes   01:22:29.244

STREAM DIAGNOSTICS:

File            PID             Type            Codec           Language                Seconds                 Bitrate                 Bytes           Packets
----            ---             ----            -----           --------                --------------          --------------          -------------   -----
00000.M2TS      4113 (0x1011)   0x1B            AVC                                     5330,892                30 000                  19 990 615 123  108 738 431
00000.M2TS      4352 (0x1100)   0x80            LPCM            eng (English)           5330,892                1 542                   1 027 822 584   6 397 236
00000.M2TS      4353 (0x1101)   0x86            DTS-HD MA       eng (English)           5330,892                2 408                   1 604 733 668   9 563 259

<---- END FORUMS PASTE ---->

QUICK SUMMARY:

Disc Title: ERBRD5317
Disc Size: 30 360 811 164 bytes
Protection: AACS
BD-Java: No
Playlist: 00011.MPLS
Size: 23 976 486 912 bytes
Length: 1:28:51.025
Total Bitrate: 35,98 Mbps
Video: MPEG-4 AVC Video / 29999 kbps / 1080i / 29,970 fps / 16:9 / High Profile 4.1
Audio: English / LPCM Audio / 2.0 / 48 kHz / 1536 kbps / 16-bit
Audio: English / DTS-HD Master Audio / 5.1 / 48 kHz / 2408 kbps / 16-bit (DTS Core: 5.1 / 48 kHz / 1509 kbps / 16-bit)

********************
PLAYLIST: 00016.MPLS
********************

<--- BEGIN FORUMS PASTE --->

Код:

                                                                                                                Total   Video
Title                                                           Codec   Length  Movie Size      Disc Size       Bitrate Bitrate Main Audio Track                          Secondary Audio Track
-----                                                           ------  ------- --------------  --------------  ------- ------- ------------------                        ---------------------
00016.MPLS                                                      AVC     0:05:15 1 309 710 336   30 360 811 164  33,22   29,99   LPCM 2.0 1536Kbps (48kHz/16-bit)


Код:



DISC INFO:

Disc Title:     ERBRD5317
Disc Size:      30 360 811 164 bytes
Protection:     AACS
BD-Java:        No
BDInfo:         0.5.8

PLAYLIST REPORT:

Name:                   00016.MPLS
Length:                 0:05:15.415 (h:m:s.ms)
Size:                   1 309 710 336 bytes
Total Bitrate:          33,22 Mbps

VIDEO:

Codec                   Bitrate             Description
-----                   -------             -----------
MPEG-4 AVC Video        29993 kbps          1080i / 29,970 fps / 16:9 / High Profile 4.1

AUDIO:

Codec                           Language        Bitrate         Description
-----                           --------        -------         -----------
LPCM Audio                      English         1536 kbps       2.0 / 48 kHz / 1536 kbps / 16-bit

FILES:

Name            Time In         Length          Size            Total Bitrate
----            -------         ------          ----            -------------
00019.M2TS      0:00:00.000     0:05:15.415     1 309 710 336   33 219

CHAPTERS:

Number          Time In         Length          Avg Video Rate  Max 1-Sec Rate  Max 1-Sec Time  Max 5-Sec Rate  Max 5-Sec Time  Max 10Sec Rate  Max 10Sec Time  Avg Frame Size  Max Frame Size  Max Frame Time
------          -------         ------          --------------  --------------  --------------  --------------  --------------  --------------  --------------  --------------  --------------  --------------
1               0:00:00.000     0:05:15.415     29 993 kbps     42 744 kbps     00:04:43.249    33 655 kbps     00:04:33.106    33 095 kbps     00:01:07.000    125 095 bytes   416 387 bytes   00:03:53.566

STREAM DIAGNOSTICS:

File            PID             Type            Codec           Language                Seconds                 Bitrate                 Bytes           Packets
----            ---             ----            -----           --------                --------------          --------------          -------------   -----
00019.M2TS      4113 (0x1011)   0x1B            AVC                                     315,282                 30 006                  1 182 526 168   6 432 309
00019.M2TS      4352 (0x1100)   0x80            LPCM            eng (English)           315,282                 1 543                   60 812 976      378 504

<---- END FORUMS PASTE ---->

QUICK SUMMARY:

Disc Title: ERBRD5317
Disc Size: 30 360 811 164 bytes
Protection: AACS
BD-Java: No
Playlist: 00016.MPLS
Size: 1 309 710 336 bytes
Length: 0:05:15.415
Total Bitrate: 33,22 Mbps
Video: MPEG-4 AVC Video / 29993 kbps / 1080i / 29,970 fps / 16:9 / High Profile 4.1
Audio: English / LPCM Audio / 2.0 / 48 kHz / 1536 kbps / 16-bit

********************
PLAYLIST: 00020.MPLS
********************

<--- BEGIN FORUMS PASTE --->

Код:

                                                                                                                Total   Video
Title                                                           Codec   Length  Movie Size      Disc Size       Bitrate Bitrate Main Audio Track                          Secondary Audio Track
-----                                                           ------  ------- --------------  --------------  ------- ------- ------------------                        ---------------------
00020.MPLS                                                      AVC     0:05:15 1 309 710 336   30 360 811 164  33,22   29,99   LPCM 2.0 1536Kbps (48kHz/16-bit)


Код:



DISC INFO:

Disc Title:     ERBRD5317
Disc Size:      30 360 811 164 bytes
Protection:     AACS
BD-Java:        No
BDInfo:         0.5.8

PLAYLIST REPORT:

Name:                   00020.MPLS
Length:                 0:05:15.415 (h:m:s.ms)
Size:                   1 309 710 336 bytes
Total Bitrate:          33,22 Mbps

VIDEO:

Codec                   Bitrate             Description
-----                   -------             -----------
MPEG-4 AVC Video        29993 kbps          1080i / 29,970 fps / 16:9 / High Profile 4.1

AUDIO:

Codec                           Language        Bitrate         Description
-----                           --------        -------         -----------
LPCM Audio                      English         1536 kbps       2.0 / 48 kHz / 1536 kbps / 16-bit

FILES:

Name            Time In         Length          Size            Total Bitrate
----            -------         ------          ----            -------------
00019.M2TS      0:00:00.000     0:05:15.415     1 309 710 336   33 219

CHAPTERS:

Number          Time In         Length          Avg Video Rate  Max 1-Sec Rate  Max 1-Sec Time  Max 5-Sec Rate  Max 5-Sec Time  Max 10Sec Rate  Max 10Sec Time  Avg Frame Size  Max Frame Size  Max Frame Time
------          -------         ------          --------------  --------------  --------------  --------------  --------------  --------------  --------------  --------------  --------------  --------------
1               0:00:00.000     0:05:15.415     29 993 kbps     42 744 kbps     00:04:43.249    33 655 kbps     00:04:33.106    33 095 kbps     00:01:07.000    125 095 bytes   416 387 bytes   00:03:53.566

STREAM DIAGNOSTICS:

File            PID             Type            Codec           Language                Seconds                 Bitrate                 Bytes           Packets
----            ---             ----            -----           --------                --------------          --------------          -------------   -----
00019.M2TS      4113 (0x1011)   0x1B            AVC                                     315,282                 30 006                  1 182 526 168   6 432 309
00019.M2TS      4352 (0x1100)   0x80            LPCM            eng (English)           315,282                 1 543                   60 812 976      378 504

<---- END FORUMS PASTE ---->

QUICK SUMMARY:

Disc Title: ERBRD5317
Disc Size: 30 360 811 164 bytes
Protection: AACS
BD-Java: No
Playlist: 00020.MPLS
Size: 1 309 710 336 bytes
Length: 0:05:15.415
Total Bitrate: 33,22 Mbps
Video: MPEG-4 AVC Video / 29993 kbps / 1080i / 29,970 fps / 16:9 / High Profile 4.1
Audio: English / LPCM Audio / 2.0 / 48 kHz / 1536 kbps / 16-bit

********************
PLAYLIST: 00013.MPLS
********************

<--- BEGIN FORUMS PASTE --->

Код:

                                                                                                                Total   Video
Title                                                           Codec   Length  Movie Size      Disc Size       Bitrate Bitrate Main Audio Track                          Secondary Audio Track
-----                                                           ------  ------- --------------  --------------  ------- ------- ------------------                        ---------------------
00013.MPLS                                                      AVC     0:05:11 1 291 603 968   30 360 811 164  33,22   29,99   LPCM 2.0 1536Kbps (48kHz/16-bit)


Код:



DISC INFO:

Disc Title:     ERBRD5317
Disc Size:      30 360 811 164 bytes
Protection:     AACS
BD-Java:        No
BDInfo:         0.5.8

PLAYLIST REPORT:

Name:                   00013.MPLS
Length:                 0:05:11.044 (h:m:s.ms)
Size:                   1 291 603 968 bytes
Total Bitrate:          33,22 Mbps

VIDEO:

Codec                   Bitrate             Description
-----                   -------             -----------
MPEG-4 AVC Video        29993 kbps          1080i / 29,970 fps / 16:9 / High Profile 4.1

AUDIO:

Codec                           Language        Bitrate         Description
-----                           --------        -------         -----------
LPCM Audio                      English         1536 kbps       2.0 / 48 kHz / 1536 kbps / 16-bit

FILES:

Name            Time In         Length          Size            Total Bitrate
----            -------         ------          ----            -------------
00016.M2TS      0:00:00.000     0:05:11.044     1 291 603 968   33 220

CHAPTERS:

Number          Time In         Length          Avg Video Rate  Max 1-Sec Rate  Max 1-Sec Time  Max 5-Sec Rate  Max 5-Sec Time  Max 10Sec Rate  Max 10Sec Time  Avg Frame Size  Max Frame Size  Max Frame Time
------          -------         ------          --------------  --------------  --------------  --------------  --------------  --------------  --------------  --------------  --------------  --------------
1               0:00:00.000     0:05:11.044     29 993 kbps     40 889 kbps     00:00:02.569    33 806 kbps     00:04:05.244    33 168 kbps     00:02:09.762    125 097 bytes   540 385 bytes   00:03:40.220

STREAM DIAGNOSTICS:

File            PID             Type            Codec           Language                Seconds                 Bitrate                 Bytes           Packets
----            ---             ----            -----           --------                --------------          --------------          -------------   -----
00016.M2TS      4113 (0x1011)   0x1B            AVC                                     310,911                 30 006                  1 166 158 530   6 343 396
00016.M2TS      4352 (0x1100)   0x80            LPCM            eng (English)           310,911                 1 543                   59 969 476      373 254

<---- END FORUMS PASTE ---->

QUICK SUMMARY:

Disc Title: ERBRD5317
Disc Size: 30 360 811 164 bytes
Protection: AACS
BD-Java: No
Playlist: 00013.MPLS
Size: 1 291 603 968 bytes
Length: 0:05:11.044
Total Bitrate: 33,22 Mbps
Video: MPEG-4 AVC Video / 29993 kbps / 1080i / 29,970 fps / 16:9 / High Profile 4.1
Audio: English / LPCM Audio / 2.0 / 48 kHz / 1536 kbps / 16-bit

********************
PLAYLIST: 00017.MPLS
********************

<--- BEGIN FORUMS PASTE --->

Код:

                                                                                                                Total   Video
Title                                                           Codec   Length  Movie Size      Disc Size       Bitrate Bitrate Main Audio Track                          Secondary Audio Track
-----                                                           ------  ------- --------------  --------------  ------- ------- ------------------                        ---------------------
00017.MPLS                                                      AVC     0:05:11 1 291 603 968   30 360 811 164  33,22   29,99   LPCM 2.0 1536Kbps (48kHz/16-bit)


Код:



DISC INFO:

Disc Title:     ERBRD5317
Disc Size:      30 360 811 164 bytes
Protection:     AACS
BD-Java:        No
BDInfo:         0.5.8

PLAYLIST REPORT:

Name:                   00017.MPLS
Length:                 0:05:11.044 (h:m:s.ms)
Size:                   1 291 603 968 bytes
Total Bitrate:          33,22 Mbps

VIDEO:

Codec                   Bitrate             Description
-----                   -------             -----------
MPEG-4 AVC Video        29993 kbps          1080i / 29,970 fps / 16:9 / High Profile 4.1

AUDIO:

Codec                           Language        Bitrate         Description
-----                           --------        -------         -----------
LPCM Audio                      English         1536 kbps       2.0 / 48 kHz / 1536 kbps / 16-bit

FILES:

Name            Time In         Length          Size            Total Bitrate
----            -------         ------          ----            -------------
00016.M2TS      0:00:00.000     0:05:11.044     1 291 603 968   33 220

CHAPTERS:

Number          Time In         Length          Avg Video Rate  Max 1-Sec Rate  Max 1-Sec Time  Max 5-Sec Rate  Max 5-Sec Time  Max 10Sec Rate  Max 10Sec Time  Avg Frame Size  Max Frame Size  Max Frame Time
------          -------         ------          --------------  --------------  --------------  --------------  --------------  --------------  --------------  --------------  --------------  --------------
1               0:00:00.000     0:05:11.044     29 993 kbps     40 889 kbps     00:00:02.569    33 806 kbps     00:04:05.244    33 168 kbps     00:02:09.762    125 097 bytes   540 385 bytes   00:03:40.220

STREAM DIAGNOSTICS:

File            PID             Type            Codec           Language                Seconds                 Bitrate                 Bytes           Packets
----            ---             ----            -----           --------                --------------          --------------          -------------   -----
00016.M2TS      4113 (0x1011)   0x1B            AVC                                     310,911                 30 006                  1 166 158 530   6 343 396
00016.M2TS      4352 (0x1100)   0x80            LPCM            eng (English)           310,911                 1 543                   59 969 476      373 254

<---- END FORUMS PASTE ---->

QUICK SUMMARY:

Disc Title: ERBRD5317
Disc Size: 30 360 811 164 bytes
Protection: AACS
BD-Java: No
Playlist: 00017.MPLS
Size: 1 291 603 968 bytes
Length: 0:05:11.044
Total Bitrate: 33,22 Mbps
Video: MPEG-4 AVC Video / 29993 kbps / 1080i / 29,970 fps / 16:9 / High Profile 4.1
Audio: English / LPCM Audio / 2.0 / 48 kHz / 1536 kbps / 16-bit

********************
PLAYLIST: 00001.MPLS
********************

<--- BEGIN FORUMS PASTE --->

Код:

                                                                                                                Total   Video
Title                                                           Codec   Length  Movie Size      Disc Size       Bitrate Bitrate Main Audio Track                          Secondary Audio Track
-----                                                           ------  ------- --------------  --------------  ------- ------- ------------------                        ---------------------
00001.MPLS                                                      AVC     0:05:05 1 270 745 088   30 360 811 164  33,23   30,00   LPCM 2.0 1536Kbps (48kHz/16-bit)


Код:



DISC INFO:

Disc Title:     ERBRD5317
Disc Size:      30 360 811 164 bytes
Protection:     AACS
BD-Java:        No
BDInfo:         0.5.8

PLAYLIST REPORT:

Name:                   00001.MPLS
Length:                 0:05:05.972 (h:m:s.ms)
Size:                   1 270 745 088 bytes
Total Bitrate:          33,23 Mbps

VIDEO:

Codec                   Bitrate             Description
-----                   -------             -----------
MPEG-4 AVC Video        29999 kbps          1080i / 29,970 fps / 16:9 / High Profile 4.1

AUDIO:

Codec                           Language        Bitrate         Description
-----                           --------        -------         -----------
LPCM Audio                      English         1536 kbps       2.0 / 48 kHz / 1536 kbps / 16-bit

FILES:

Name            Time In         Length          Size            Total Bitrate
----            -------         ------          ----            -------------
00001.M2TS      0:00:00.000     0:05:05.972     1 270 745 088   33 225

CHAPTERS:

Number          Time In         Length          Avg Video Rate  Max 1-Sec Rate  Max 1-Sec Time  Max 5-Sec Rate  Max 5-Sec Time  Max 10Sec Rate  Max 10Sec Time  Avg Frame Size  Max Frame Size  Max Frame Time
------          -------         ------          --------------  --------------  --------------  --------------  --------------  --------------  --------------  --------------  --------------  --------------
1               0:00:00.000     0:05:05.972     29 999 kbps     39 271 kbps     00:02:03.923    33 930 kbps     00:02:00.019    33 041 kbps     00:01:07.500    125 121 bytes   625 681 bytes   00:04:18.324

STREAM DIAGNOSTICS:

File            PID             Type            Codec           Language                Seconds                 Bitrate                 Bytes           Packets
----            ---             ----            -----           --------                --------------          --------------          -------------   -----
00001.M2TS      4113 (0x1011)   0x1B            AVC                                     305,839                 30 012                  1 147 356 984   6 241 012
00001.M2TS      4352 (0x1100)   0x80            LPCM            eng (English)           305,839                 1 543                   58 991 980      367 170

<---- END FORUMS PASTE ---->

QUICK SUMMARY:

Disc Title: ERBRD5317
Disc Size: 30 360 811 164 bytes
Protection: AACS
BD-Java: No
Playlist: 00001.MPLS
Size: 1 270 745 088 bytes
Length: 0:05:05.972
Total Bitrate: 33,23 Mbps
Video: MPEG-4 AVC Video / 29999 kbps / 1080i / 29,970 fps / 16:9 / High Profile 4.1
Audio: English / LPCM Audio / 2.0 / 48 kHz / 1536 kbps / 16-bit

********************
PLAYLIST: 00012.MPLS
********************

<--- BEGIN FORUMS PASTE --->

Код:

                                                                                                                Total   Video
Title                                                           Codec   Length  Movie Size      Disc Size       Bitrate Bitrate Main Audio Track                          Secondary Audio Track
-----                                                           ------  ------- --------------  --------------  ------- ------- ------------------                        ---------------------
00012.MPLS                                                      AVC     0:05:05 1 270 745 088   30 360 811 164  33,23   30,00   LPCM 2.0 1536Kbps (48kHz/16-bit)


Код:



DISC INFO:

Disc Title:     ERBRD5317
Disc Size:      30 360 811 164 bytes
Protection:     AACS
BD-Java:        No
BDInfo:         0.5.8

PLAYLIST REPORT:

Name:                   00012.MPLS
Length:                 0:05:05.972 (h:m:s.ms)
Size:                   1 270 745 088 bytes
Total Bitrate:          33,23 Mbps

VIDEO:

Codec                   Bitrate             Description
-----                   -------             -----------
MPEG-4 AVC Video        29999 kbps          1080i / 29,970 fps / 16:9 / High Profile 4.1

AUDIO:

Codec                           Language        Bitrate         Description
-----                           --------        -------         -----------
LPCM Audio                      English         1536 kbps       2.0 / 48 kHz / 1536 kbps / 16-bit

FILES:

Name            Time In         Length          Size            Total Bitrate
----            -------         ------          ----            -------------
00001.M2TS      0:00:00.000     0:05:05.972     1 270 745 088   33 225

CHAPTERS:

Number          Time In         Length          Avg Video Rate  Max 1-Sec Rate  Max 1-Sec Time  Max 5-Sec Rate  Max 5-Sec Time  Max 10Sec Rate  Max 10Sec Time  Avg Frame Size  Max Frame Size  Max Frame Time
------          -------         ------          --------------  --------------  --------------  --------------  --------------  --------------  --------------  --------------  --------------  --------------
1               0:00:00.000     0:05:05.972     29 999 kbps     39 271 kbps     00:02:03.923    33 930 kbps     00:02:00.019    33 041 kbps     00:01:07.500    125 121 bytes   625 681 bytes   00:04:18.324

STREAM DIAGNOSTICS:

File            PID             Type            Codec           Language                Seconds                 Bitrate                 Bytes           Packets
----            ---             ----            -----           --------                --------------          --------------          -------------   -----
00001.M2TS      4113 (0x1011)   0x1B            AVC                                     305,839                 30 012                  1 147 356 984   6 241 012
00001.M2TS      4352 (0x1100)   0x80            LPCM            eng (English)           305,839                 1 543                   58 991 980      367 170

<---- END FORUMS PASTE ---->

QUICK SUMMARY:

Disc Title: ERBRD5317
Disc Size: 30 360 811 164 bytes
Protection: AACS
BD-Java: No
Playlist: 00012.MPLS
Size: 1 270 745 088 bytes
Length: 0:05:05.972
Total Bitrate: 33,23 Mbps
Video: MPEG-4 AVC Video / 29999 kbps / 1080i / 29,970 fps / 16:9 / High Profile 4.1
Audio: English / LPCM Audio / 2.0 / 48 kHz / 1536 kbps / 16-bit

********************
PLAYLIST: 00015.MPLS
********************

<--- BEGIN FORUMS PASTE --->

Код:

                                                                                                                Total   Video
Title                                                           Codec   Length  Movie Size      Disc Size       Bitrate Bitrate Main Audio Track                          Secondary Audio Track
-----                                                           ------  ------- --------------  --------------  ------- ------- ------------------                        ---------------------
00015.MPLS                                                      AVC     0:04:09 1 038 034 944   30 360 811 164  33,22   29,99   LPCM 2.0 1536Kbps (48kHz/16-bit)


Код:



DISC INFO:

Disc Title:     ERBRD5317
Disc Size:      30 360 811 164 bytes
Protection:     AACS
BD-Java:        No
BDInfo:         0.5.8

PLAYLIST REPORT:

Name:                   00015.MPLS
Length:                 0:04:09.983 (h:m:s.ms)
Size:                   1 038 034 944 bytes
Total Bitrate:          33,22 Mbps

VIDEO:

Codec                   Bitrate             Description
-----                   -------             -----------
MPEG-4 AVC Video        29992 kbps          1080i / 29,970 fps / 16:9 / High Profile 4.1

AUDIO:

Codec                           Language        Bitrate         Description
-----                           --------        -------         -----------
LPCM Audio                      English         1536 kbps       2.0 / 48 kHz / 1536 kbps / 16-bit

FILES:

Name            Time In         Length          Size            Total Bitrate
----            -------         ------          ----            -------------
00018.M2TS      0:00:00.000     0:04:09.983     1 038 034 944   33 219

CHAPTERS:

Number          Time In         Length          Avg Video Rate  Max 1-Sec Rate  Max 1-Sec Time  Max 5-Sec Rate  Max 5-Sec Time  Max 10Sec Rate  Max 10Sec Time  Avg Frame Size  Max Frame Size  Max Frame Time
------          -------         ------          --------------  --------------  --------------  --------------  --------------  --------------  --------------  --------------  --------------  --------------
1               0:00:00.000     0:04:09.983     29 992 kbps     47 844 kbps     00:01:50.810    35 691 kbps     00:01:46.873    34 183 kbps     00:01:41.801    125 091 bytes   433 812 bytes   00:02:29.415

STREAM DIAGNOSTICS:

File            PID             Type            Codec           Language                Seconds                 Bitrate                 Bytes           Packets
----            ---             ----            -----           --------                --------------          --------------          -------------   -----
00018.M2TS      4113 (0x1011)   0x1B            AVC                                     249,850                 30 008                  937 180 938     5 098 050
00018.M2TS      4352 (0x1100)   0x80            LPCM            eng (English)           249,850                 1 543                   48 197 108      299 982

<---- END FORUMS PASTE ---->

QUICK SUMMARY:

Disc Title: ERBRD5317
Disc Size: 30 360 811 164 bytes
Protection: AACS
BD-Java: No
Playlist: 00015.MPLS
Size: 1 038 034 944 bytes
Length: 0:04:09.983
Total Bitrate: 33,22 Mbps
Video: MPEG-4 AVC Video / 29992 kbps / 1080i / 29,970 fps / 16:9 / High Profile 4.1
Audio: English / LPCM Audio / 2.0 / 48 kHz / 1536 kbps / 16-bit

********************
PLAYLIST: 00019.MPLS
********************

<--- BEGIN FORUMS PASTE --->

Код:

                                                                                                                Total   Video
Title                                                           Codec   Length  Movie Size      Disc Size       Bitrate Bitrate Main Audio Track                          Secondary Audio Track
-----                                                           ------  ------- --------------  --------------  ------- ------- ------------------                        ---------------------
00019.MPLS                                                      AVC     0:04:09 1 038 034 944   30 360 811 164  33,22   29,99   LPCM 2.0 1536Kbps (48kHz/16-bit)


Код:



DISC INFO:

Disc Title:     ERBRD5317
Disc Size:      30 360 811 164 bytes
Protection:     AACS
BD-Java:        No
BDInfo:         0.5.8

PLAYLIST REPORT:

Name:                   00019.MPLS
Length:                 0:04:09.983 (h:m:s.ms)
Size:                   1 038 034 944 bytes
Total Bitrate:          33,22 Mbps

VIDEO:

Codec                   Bitrate             Description
-----                   -------             -----------
MPEG-4 AVC Video        29992 kbps          1080i / 29,970 fps / 16:9 / High Profile 4.1

AUDIO:

Codec                           Language        Bitrate         Description
-----                           --------        -------         -----------
LPCM Audio                      English         1536 kbps       2.0 / 48 kHz / 1536 kbps / 16-bit

FILES:

Name            Time In         Length          Size            Total Bitrate
----            -------         ------          ----            -------------
00018.M2TS      0:00:00.000     0:04:09.983     1 038 034 944   33 219

CHAPTERS:

Number          Time In         Length          Avg Video Rate  Max 1-Sec Rate  Max 1-Sec Time  Max 5-Sec Rate  Max 5-Sec Time  Max 10Sec Rate  Max 10Sec Time  Avg Frame Size  Max Frame Size  Max Frame Time
------          -------         ------          --------------  --------------  --------------  --------------  --------------  --------------  --------------  --------------  --------------  --------------
1               0:00:00.000     0:04:09.983     29 992 kbps     47 844 kbps     00:01:50.810    35 691 kbps     00:01:46.873    34 183 kbps     00:01:41.801    125 091 bytes   433 812 bytes   00:02:29.415

STREAM DIAGNOSTICS:

File            PID             Type            Codec           Language                Seconds                 Bitrate                 Bytes           Packets
----            ---             ----            -----           --------                --------------          --------------          -------------   -----
00018.M2TS      4113 (0x1011)   0x1B            AVC                                     249,850                 30 008                  937 180 938     5 098 050
00018.M2TS      4352 (0x1100)   0x80            LPCM            eng (English)           249,850                 1 543                   48 197 108      299 982

<---- END FORUMS PASTE ---->

QUICK SUMMARY:

Disc Title: ERBRD5317
Disc Size: 30 360 811 164 bytes
Protection: AACS
BD-Java: No
Playlist: 00019.MPLS
Size: 1 038 034 944 bytes
Length: 0:04:09.983
Total Bitrate: 33,22 Mbps
Video: MPEG-4 AVC Video / 29992 kbps / 1080i / 29,970 fps / 16:9 / High Profile 4.1
Audio: English / LPCM Audio / 2.0 / 48 kHz / 1536 kbps / 16-bit

********************
PLAYLIST: 00014.MPLS
********************

<--- BEGIN FORUMS PASTE --->

Код:

                                                                                                                Total   Video
Title                                                           Codec   Length  Movie Size      Disc Size       Bitrate Bitrate Main Audio Track                          Secondary Audio Track
-----                                                           ------  ------- --------------  --------------  ------- ------- ------------------                        ---------------------
00014.MPLS                                                      AVC     0:03:36 897 036 288     30 360 811 164  33,22   29,99   LPCM 2.0 1536Kbps (48kHz/16-bit)


Код:



DISC INFO:

Disc Title:     ERBRD5317
Disc Size:      30 360 811 164 bytes
Protection:     AACS
BD-Java:        No
BDInfo:         0.5.8

PLAYLIST REPORT:

Name:                   00014.MPLS
Length:                 0:03:36.015 (h:m:s.ms)
Size:                   897 036 288 bytes
Total Bitrate:          33,22 Mbps

VIDEO:

Codec                   Bitrate             Description
-----                   -------             -----------
MPEG-4 AVC Video        29995 kbps          1080i / 29,970 fps / 16:9 / High Profile 4.1

AUDIO:

Codec                           Language        Bitrate         Description
-----                           --------        -------         -----------
LPCM Audio                      English         1536 kbps       2.0 / 48 kHz / 1536 kbps / 16-bit

FILES:

Name            Time In         Length          Size            Total Bitrate
----            -------         ------          ----            -------------
00017.M2TS      0:00:00.000     0:03:36.015     897 036 288     33 221

CHAPTERS:

Number          Time In         Length          Avg Video Rate  Max 1-Sec Rate  Max 1-Sec Time  Max 5-Sec Rate  Max 5-Sec Time  Max 10Sec Rate  Max 10Sec Time  Avg Frame Size  Max Frame Size  Max Frame Time
------          -------         ------          --------------  --------------  --------------  --------------  --------------  --------------  --------------  --------------  --------------  --------------
1               0:00:00.000     0:03:36.015     29 995 kbps     40 644 kbps     00:01:27.687    33 361 kbps     00:00:14.080    32 836 kbps     00:00:45.111    125 104 bytes   440 424 bytes   00:03:19.065

STREAM DIAGNOSTICS:

File            PID             Type            Codec           Language                Seconds                 Bitrate                 Bytes           Packets
----            ---             ----            -----           --------                --------------          --------------          -------------   -----
00017.M2TS      4113 (0x1011)   0x1B            AVC                                     215,882                 30 013                  809 922 087     4 405 569
00017.M2TS      4352 (0x1100)   0x80            LPCM            eng (English)           215,882                 1 543                   41 648 656      259 224

<---- END FORUMS PASTE ---->

QUICK SUMMARY:

Disc Title: ERBRD5317
Disc Size: 30 360 811 164 bytes
Protection: AACS
BD-Java: No
Playlist: 00014.MPLS
Size: 897 036 288 bytes
Length: 0:03:36.015
Total Bitrate: 33,22 Mbps
Video: MPEG-4 AVC Video / 29995 kbps / 1080i / 29,970 fps / 16:9 / High Profile 4.1
Audio: English / LPCM Audio / 2.0 / 48 kHz / 1536 kbps / 16-bit

********************
PLAYLIST: 00018.MPLS
********************

<--- BEGIN FORUMS PASTE --->

Код:

                                                                                                                Total   Video
Title                                                           Codec   Length  Movie Size      Disc Size       Bitrate Bitrate Main Audio Track                          Secondary Audio Track
-----                                                           ------  ------- --------------  --------------  ------- ------- ------------------                        ---------------------
00018.MPLS                                                      AVC     0:03:36 897 036 288     30 360 811 164  33,22   29,99   LPCM 2.0 1536Kbps (48kHz/16-bit)


Код:



DISC INFO:

Disc Title:     ERBRD5317
Disc Size:      30 360 811 164 bytes
Protection:     AACS
BD-Java:        No
BDInfo:         0.5.8

PLAYLIST REPORT:

Name:                   00018.MPLS
Length:                 0:03:36.015 (h:m:s.ms)
Size:                   897 036 288 bytes
Total Bitrate:          33,22 Mbps

VIDEO:

Codec                   Bitrate             Description
-----                   -------             -----------
MPEG-4 AVC Video        29995 kbps          1080i / 29,970 fps / 16:9 / High Profile 4.1

AUDIO:

Codec                           Language        Bitrate         Description
-----                           --------        -------         -----------
LPCM Audio                      English         1536 kbps       2.0 / 48 kHz / 1536 kbps / 16-bit

FILES:

Name            Time In         Length          Size            Total Bitrate
----            -------         ------          ----            -------------
00017.M2TS      0:00:00.000     0:03:36.015     897 036 288     33 221

CHAPTERS:

Number          Time In         Length          Avg Video Rate  Max 1-Sec Rate  Max 1-Sec Time  Max 5-Sec Rate  Max 5-Sec Time  Max 10Sec Rate  Max 10Sec Time  Avg Frame Size  Max Frame Size  Max Frame Time
------          -------         ------          --------------  --------------  --------------  --------------  --------------  --------------  --------------  --------------  --------------  --------------
1               0:00:00.000     0:03:36.015     29 995 kbps     40 644 kbps     00:01:27.687    33 361 kbps     00:00:14.080    32 836 kbps     00:00:45.111    125 104 bytes   440 424 bytes   00:03:19.065

STREAM DIAGNOSTICS:

File            PID             Type            Codec           Language                Seconds                 Bitrate                 Bytes           Packets
----            ---             ----            -----           --------                --------------          --------------          -------------   -----
00017.M2TS      4113 (0x1011)   0x1B            AVC                                     215,882                 30 013                  809 922 087     4 405 569
00017.M2TS      4352 (0x1100)   0x80            LPCM            eng (English)           215,882                 1 543                   41 648 656      259 224

<---- END FORUMS PASTE ---->

QUICK SUMMARY:

Disc Title: ERBRD5317
Disc Size: 30 360 811 164 bytes
Protection: AACS
BD-Java: No
Playlist: 00018.MPLS
Size: 897 036 288 bytes
Length: 0:03:36.015
Total Bitrate: 33,22 Mbps
Video: MPEG-4 AVC Video / 29995 kbps / 1080i / 29,970 fps / 16:9 / High Profile 4.1
Audio: English / LPCM Audio / 2.0 / 48 kHz / 1536 kbps / 16-bit

pic
Скриншоты


раздаю с 10 до 02 ночи
pic
pic
Def Leppard - And there will be a next time... Live from Detroit 2017 Blu-Ray.torrent
 СЕРЕБРЯНАЯ РАЗДАЧА! СКАЧАННОЕ ЗАСЧИТЫВАЕТСЯ ТОЛЬКО НАПОЛОВИНУ! 
Вечный
Трекер: Зарегистрирован

magnet ссылка

 


Скачать .torrent

146 KB

Статус: проверено (by Cherepah в 08-Май-19 21:52)
Зарегистрирован: 08-Май-19 18:17
Скачан: 6 раз
Размер: 28.28 GB | 
Поблагодарили:
Скачать Def Leppard - And there will be a next time... Live from Detroit [2017, Hard Rock, Blu-Ray 1080i] торрент
 


Похожие раздачи

Текущее время: 25-Авг 20:15

Часовой пояс: GMT + 3



Вы не можете начинать темы
Вы не можете отвечать на сообщения
Вы не можете редактировать свои сообщения
Вы не можете удалять свои сообщения
Вы не можете голосовать в опросах
Вы не можете прикреплять файлы к сообщениям
Вы не можете скачивать файлы