Loading...
Error
 

Скачать торрент Планеты / The Planets (Мартин Джонсон, Стивен Кутер, Ник Стэйси / Martin Johnson, Stephen Cooter, Nic Stacey) (1-5 серии из 5) [2019, Документальный, космос, BDRip 1080p][HEVC][SDI-Media]

 
Автор Сообщение

brother225

post 18-Июл-19 22:13

pic
Планеты / The Planets

серии 1-5 из 5
Год выпуска: 2019
Страна Великобритания, США, Китай,BBC Studios Productions, NOVA, WGBH, Tencent Penguin Pictures
Жанр: Документальный, космос
Продолжительность: 5 x ~ 00:58:00
Перевод: Профессиональный (двухголосый закадровый) | SDI-Media
Субтитры: отсутствуют
В ролях: София Лиллис, Сэм Трэммелл, Андреа Андерс, Лаура Уиггинс, Линда Лавин, Джесси Бойд, Джон Бридделл, Дженнифер Райкер, Маккензи Грэхэм, Ивэн Кастелло
Режиссёр: Мартин Джонсон, Стивен Кутер, Ник Стэйси / Martin Johnson, Stephen Cooter, Nic Stacey
Описание: Сияние звезд озаряет ночное небо. Только в нашей галактике их сотни миллиардов. Многие из них гораздо больше и ярче нашего Солнца. В масштабе галактик и звезд пленеты нашей солнечной системы по сути не более, чем песчинки, на мгновение попавшие на свет. Но на этих песчинках за более чем 4 миллиарда лет происходили грандиозные истории. Истории рождения планет и их гибели. Планет, созданных средь безмятежностей и хаоса. Их судьбы переплетены сильнее, чем мы могли бы представить...
Качество: BDRip 1080p
Формат: MKV
Видео кодек: x265
Аудио кодек: AC3
Видео: HEVC 1920х1080 ,25 fps, 2906-4385 Kb/s, 0.085 bpp 10 bit
Аудио: 2 ch, 48 KHz, 192 kb/s [SDI-Media]
серии
01. Мгновение в лучах Солнца - планеты земного типа / A Moment in the Sun - The Terrestrial Planets
Каменистые планеты Меркурий, Венера, Земля и Марс родились в одно и то же время из одного и того же материала, но жили радикально разными жизнями. Какие огромные силы в игре?
02. Две сестры - Земля и Марс / The Two Sisters - Earth & Mars
Профессор Брайан Кокс продолжает свое путешествие по солнечной системе, показывая, что когда-то здесь была не одна, а две голубые планеты.
03. Крестный отец - Юпитер / The Godfather: Jupiter
Брайан Кокс продолжает свое исследование Солнечной системы, посещая планету, которая затмевает все остальные: Юпитер. Его размер дает ему большую силу, которую он использовал для манипулирования другими планетами.
04. В дали от Солнца - Сатурн / Life Beyond the Sun: Saturn
Профессор Брайан Кокс раскрывает историю Сатурна. Сатурн начал свою жизнь как странная планета из камня и льда и со временем превратился в газового гиганта, без кольца и похожего на своего конкурента Юпитера.
05. Путь во тьму - внешняя часть солнечной системы / Into The Darkness: The outer Solar System
По ту сторону от ураганов Юпитера и колец Сатурна окуржающий мир меняется. Именно здесь находится самая загадочная из планет - Уран, бледно голубой мраморный шар, парящий в глубинах Космоса.
MediaInfo
Complete name : H:\мои раздачи\The Planets_2019_HEVC\S01E03.mkv
Format : Matroska
Format version : Version 4
File size : 1.87 GiB
Duration : 58 min 19 s
Overall bit rate : 4 578 kb/s
Encoded date : UTC 2019-07-18 19:10:22
Writing application : mkvmerge v35.0.0 ('All The Love In The World') 64-bit
Writing library : libebml v1.3.9 + libmatroska v1.5.2

Video
ID : 1
Format : HEVC
Format/Info : High Efficiency Video Coding
Format profile : Main [email protected]@High
Codec ID : V_MPEGH/ISO/HEVC
Duration : 58 min 19 s
Bit rate : 4 385 kb/s
Width : 1 920 pixels
Height : 1 080 pixels
Display aspect ratio : 16:9
Frame rate mode : Constant
Frame rate : 25.000 FPS
Color space : YUV
Chroma subsampling : 4:2:0
Bit depth : 10 bits
Bits/(Pixel*Frame) : 0.085
Stream size : 1.79 GiB (96%)
Writing library : x265 3.1+7-147fb92c5ed5:[Windows][MSVC 1921][64 bit] 10bit
Default : Yes
Forced : No
Color range : Limited
Color primaries : BT.709
Transfer characteristics : BT.709
Matrix coefficients : BT.709

Audio
ID : 2
Format : AC-3
Format/Info : Audio Coding 3
Commercial name : Dolby Digital
Codec ID : A_AC3
Duration : 58 min 19 s
Bit rate mode : Constant
Bit rate : 192 kb/s
Channel(s) : 2 channels
Channel layout : L R
Sampling rate : 48.0 kHz
Frame rate : 31.250 FPS (1536 SPF)
Bit depth : 16 bits
Compression mode : Lossy
Stream size : 80.1 MiB (4%)
Service kind : Complete Main
Default : Yes
Forced : No
Скриншоты
The Planets_2019_HEVC.torrent
 СЕРЕБРЯНАЯ РАЗДАЧА! СКАЧАННОЕ ЗАСЧИТЫВАЕТСЯ ТОЛЬКО НАПОЛОВИНУ! 
Вечный
Трекер: Зарегистрирован

magnet ссылка

 


Скачать .torrent

43 KB

Статус: проверено (by Cherepah в 19-Июл-19 08:40)
Зарегистрирован: 19-Июл-19 08:08
Скачан: 187 раз
Размер: 8.46 GB | 
Поблагодарили:
Скачать Планеты / The Planets (Мартин Джонсон, Стивен Кутер, Ник Стэйси / Martin Johnson, Stephen Cooter, Nic Stacey) (1-5 серии из 5) [2019, Документальный, космос, BDRip 1080p][HEVC][SDI-Media] торрент
 


Похожие раздачи

MARKUS

post 18-Июл-19 23:24 (спустя 1 час 10 минут)

смотрел кто? интересно сделано?

brother225

post 19-Июл-19 00:12 (спустя 48 минут)

MARKUS
на одном трекере вроде бредятина.На другом типа обнова цикла передач начала 2000-х на основе последних исследований.

condros

post 02-Авг-19 22:43 (спустя 14 дней)

MARKUS смотрю. Сделано качественно, но перевод с ошибками. Советскую автоматическую межпланетную станцию "Венера 13" диктор почему то озвучивает как "Венера 30" и т.д.
Да и как обычно полфильма зачем-то про эволюцию опять втирают, это что, требование или правило хорошего тона в BBC или что?

Текущее время: 24-Авг 05:07

Часовой пояс: GMT + 3



Вы не можете начинать темы
Вы не можете отвечать на сообщения
Вы не можете редактировать свои сообщения
Вы не можете удалять свои сообщения
Вы не можете голосовать в опросах
Вы не можете прикреплять файлы к сообщениям
Вы не можете скачивать файлы