Loading...
Error
 

Скачать торрент (Hard Rock / Alternative Metal / Female Vocal) Halestorm - Vicious (Walmart Limited Edition) (2018) [FLAC, (tracks), lossless]

 
Автор Сообщение

Слава2312

post 10-Авг-19 10:36

pic


pic

Жанр: Hard Rock / Alternative Metal / Female Vocal
Год издания данного носителя: 2018
Страна-производитель носителя: US
Лейбл: Atlantic Records
Каталоговый номер: 572748-2
Аудио кодек: FLAC
Тип рипа: tracks
Битрейт аудио: lossless
Продолжительность: 00:53:05
Источник (релизер): Apollo
Полиграфия: нет
Для ознакомления:
pic pic pic pic
Треклист:
[4:11] 01. Halestorm - Black Vultures
[3:20] 02. Halestorm - Skulls
[3:41] 03. Halestorm - Uncomfortable
[3:22] 04. Halestorm - Buzz
[3:24] 05. Halestorm - Do Not Disturb
[3:29] 06. Halestorm - Conflicted
[4:00] 07. Halestorm - Killing Ourselves to Live
[3:33] 08. Halestorm - Heart of Novocaine
[3:14] 09. Halestorm - Painkiller
[3:29] 10. Halestorm - White Dress
[3:02] 11. Halestorm - Vicious
[4:48] 12. Halestorm - The Silence
[4:13] 13. Halestorm - Nobody (Walmart Exclusive)
[5:19] 14. Halestorm - Letters (Walmart Exclusive)
AUDIOCHECKER

Код:



AUDIOCHECKER v2.0 beta (build 457) - by Dester
~~~~~~~~~~~~~~~~~~~~~~~~~~~~~~~~~~
-=== НЕ РЕДАКТИРУЙТЕ ЭТОТ ФАЙЛ! ===-

Путь: ...\Halestorm - Vicious (Walmart Limited Edition) [2018] Flac

01 -=- 01 - Black Vultures.flac -=- CDDA (100%)
02 -=- 02 - Skulls.flac -=- CDDA (100%)
03 -=- 03 - Uncomfortable.flac -=- CDDA (100%)
04 -=- 04 - Buzz.flac -=- CDDA (99%)
05 -=- 05 - Do Not Disturb.flac -=- MPEG (79%)
06 -=- 06 - Conflicted.flac -=- CDDA (100%)
07 -=- 07 - Killing Ourselves to Live.flac -=- CDDA (100%)
08 -=- 08 - Heart of Novocaine.flac -=- CDDA (100%)
09 -=- 09 - Painkiller.flac -=- CDDA (100%)
10 -=- 10 - White Dress.flac -=- CDDA (100%)
11 -=- 11 - Vicious.flac -=- CDDA (100%)
12 -=- 12 - The Silence.flac -=- CDDA (100%)
13 -=- 13 - Nobody.flac -=- CDDA (100%)
14 -=- 14 - Letters.flac -=- CDDA (100%)

Сводка 94,29% CDDA

136299364

Замер динамического диапазона (DR)

Код:



foobar2000 1.4.1 / Замер динамического диапазона (DR) 1.1.1
Дата отчёта:    2019-08-10 11:24:21

--------------------------------------------------------------------------------
Анализ:   Halestorm / Vicious (Walmart Limited Edition)
--------------------------------------------------------------------------------

DR         Пики         RMS           Продолжительность трека
--------------------------------------------------------------------------------
DR5        0.00 дБ    -6.59 дБ      4:11 01-Black Vultures
DR5        0.00 дБ    -6.55 дБ      3:20 02-Skulls
DR4        0.00 дБ    -5.48 дБ      3:41 03-Uncomfortable
DR4        0.00 дБ    -5.85 дБ      3:22 04-Buzz
DR4        0.00 дБ    -6.82 дБ      3:24 05-Do Not Disturb
DR5        0.00 дБ    -8.20 дБ      3:29 06-Conflicted
DR5        0.00 дБ    -6.53 дБ      4:00 07-Killing Ourselves to Live
DR7        0.00 дБ    -8.80 дБ      3:33 08-Heart of Novocaine
DR4        0.00 дБ    -5.52 дБ      3:14 09-Painkiller
DR4        0.00 дБ    -5.57 дБ      3:29 10-White Dress
DR4        0.00 дБ    -5.99 дБ      3:02 11-Vicious
DR9        0.00 дБ   -11.41 дБ      4:48 12-The Silence
DR4        0.00 дБ    -6.44 дБ      4:13 13-Nobody (Walmart Exclusive)
DR4        0.00 дБ    -6.25 дБ      5:19 14-Letters (Walmart Exclusive)
--------------------------------------------------------------------------------

Количество треков:  14
Реальные значения DR:  DR5

Частота:      44100 Гц
Каналов:      2
Разрядность:     16
Битрейт:      960 кбит/с
Кодек:      FLAC
================================================================================

Спектрограммы

Halestorm - Vicious (Walmart Limited Edition) (2018) Flac.torrent
Трекер: Зарегистрирован

magnet ссылка

 


Скачать .torrent

16 KB

Статус: проверено (by Cherepah в 10-Авг-19 11:16)
Зарегистрирован: 10-Авг-19 10:36
Скачан: 21 раз
Размер: 386 MB | 
Поблагодарили:
Скачать (Hard Rock / Alternative Metal / Female Vocal) Halestorm - Vicious (Walmart Limited Edition) (2018) [FLAC, (tracks), lossless] торрент
 


Похожие раздачи

Текущее время: 25-Авг 05:25

Часовой пояс: GMT + 3



Вы не можете начинать темы
Вы не можете отвечать на сообщения
Вы не можете редактировать свои сообщения
Вы не можете удалять свои сообщения
Вы не можете голосовать в опросах
Вы не можете прикреплять файлы к сообщениям
Вы не можете скачивать файлы