Loading...
Error
 
Мини-чат
 

Скачать торрент Со склонов Кокурико / From Up on Poppy Hill / Kokuriko Zaka Kara (Горо Миядзаки) [2011, аниме, мультфильм, драма, BDRip 1080p] [HEVC] [DUB] [Reanimedia] [MVO] [Омикрон]

 
Автор Сообщение

Roman2013

post 04-Окт-19 15:19

Со склонов Кокурико / From Up on Poppy Hill / Kokuriko Zaka Kara
pic

Год выпуска: 2011
Страна: Япония
Студия: Studio Ghibli
Жанр: Аниме, мультфильм, драма
Продолжительность: 01:30:52
Перевод: Дублированный (Reanimedia)
Многоголосый закадровый (Омикрон)
Субтитры: Русские
Режиссёр: Горо Миядзаки
В ролях: Масами Нагасава, Дзюнъити Окада, Кэйко Такэсита, Юрико Исида, Руми Хиираги, Дзюн Фубуки, Такаси Найто, Сюнсукэ Кадзама, Нао Омори, Тэруюки Кагава
Описание:
Действие разворачивается в 1963 году близ Иокогамы. У героини — Уми Мацудзаки — отец, командир корабля, погибает во время Корейской войны 10 лет назад, когда она была еще маленькой девочкой. В то время как её мать находится в отъезде, девочке приходится принять хозяйство на себя, в частности, не забывать каждое утро поднимать флажки — такое правило поставил отец, чтобы видеть с моря, что его ожидают дома.

В городке имеется школьный клуб, с разнообразными секциями по интересам. Проблема этого клуба в том, что его хотят закрыть, тем более, что здание, в котором он базируется, уже обветшало. И вот Уми, вместе с другими школьными активистами должна ехать в Токио к спонсору школы, чтобы спасти дом от разрушения. На фоне общественной деятельности просыпается первая любовь.

Качество: BDRip 1080p
Формат: MKV
Видео кодек: HEVC
Аудио кодек: AC-3, AAC
Видео : 1920 x 1080 / (16:9) / 7937 kbps / 23.976 fps / 0.160 bpp / 8 bit
Аудио №1: Русский, Reanimedia: AC3 / 5.0/ 48 kHz/ 448 Kbps
Аудио №2: Русский, Омикрон: AAC / 6.0/ 48 kHz/ 490 Kbps
Аудио №3: Японский, 日本語: AAC / 6.0/ 48 kHz/ 489 Kbps

Рейтинг
pic
Со склонов Кокурико Русский трейлер
MediaInfo
General
Unique ID : 262311294242540835208770124395554872340 (0xC557515069F268DED9FB63CA47091C14)
Complete name : Kokuriko.Zaka.Kara.2011.HEVC.BDRip.1080p.Rus.Jpn.mkv
Format : Matroska
Format version : Version 4
File size : 5.95 GiB
Duration : 1 h 30 min
Overall bit rate : 9 368 kb/s
Encoded date : UTC 2019-10-04 11:49:09
Writing application : mkvmerge v37.0.0 ('Leave It') 64-bit
Writing library : libebml v1.3.9 + libmatroska v1.5.2

Video
ID : 1
Format : HEVC
Format/Info : High Efficiency Video Coding
Format profile : [email protected]@High
Codec ID : V_MPEGH/ISO/HEVC
Duration : 1 h 30 min
Bit rate : 7 937 kb/s
Width : 1 920 pixels
Height : 1 080 pixels
Display aspect ratio : 16:9
Frame rate mode : Constant
Frame rate : 23.976 (23976/1000) FPS
Original frame rate : 23.976 (24000/1001) FPS
Color space : YUV
Chroma subsampling : 4:2:0
Bit depth : 8 bits
Bits/(Pixel*Frame) : 0.160
Stream size : 5.04 GiB (85%)
Language : Japanese
Default : Yes
Forced : No

Audio #1
ID : 2
Format : AC-3
Format/Info : Audio Coding 3
Commercial name : Dolby Digital
Codec ID : A_AC3
Duration : 1 h 30 min
Bit rate mode : Constant
Bit rate : 448 kb/s
Channel(s) : 5 channels
Channel layout : L R C Ls Rs
Sampling rate : 48.0 kHz
Frame rate : 31.250 FPS (1536 SPF)
Bit depth : 16 bits
Compression mode : Lossy
Stream size : 291 MiB (5%)
Title : DUB [Reanimedia]
Language : Russian
Service kind : Complete Main
Default : Yes
Forced : Yes

Audio #2
ID : 3
Format : AAC LC
Format/Info : Advanced Audio Codec Low Complexity
Codec ID : A_AAC-2
Duration : 1 h 30 min
Bit rate : 490 kb/s
Channel(s) : 6 channels
Channel layout : C L R Ls Rs LFE
Sampling rate : 48.0 kHz
Frame rate : 46.875 FPS (1024 SPF)
Compression mode : Lossy
Stream size : 318 MiB (5%)
Title : MVO [Omikron]
Language : Russian
Default : No
Forced : No

Audio #3
ID : 4
Format : AAC LC
Format/Info : Advanced Audio Codec Low Complexity
Codec ID : A_AAC-2
Duration : 1 h 30 min
Bit rate : 489 kb/s
Channel(s) : 6 channels
Channel layout : C L R Ls Rs LFE
Sampling rate : 48.0 kHz
Frame rate : 46.875 FPS (1024 SPF)
Compression mode : Lossy
Stream size : 318 MiB (5%)
Title : Original
Language : Japanese
Default : No
Forced : No

Text
ID : 5
Format : UTF-8
Codec ID : S_TEXT/UTF8
Codec ID/Info : UTF-8 Plain Text
Duration : 1 h 30 min
Bit rate : 70 b/s
Count of elements : 869
Stream size : 46.3 KiB (0%)
Title : Rus [Reanimedia]
Language : Russian
Default : Yes
Forced : No
Скриншоты
Kokuriko.Zaka.Kara.2011.HEVC.BDRip.1080p.Rus.Jpn.mkv.torrent
Трекер: Зарегистрирован

magnet ссылка

 


Скачать .torrent

15 KB

Статус: проверено (by Snowden в 05-Окт-19 02:39)
Зарегистрирован: 04-Окт-19 15:19
Скачан: 91 раз
Размер: 5.95 GB | 
Поблагодарили:
Скачать Со склонов Кокурико / From Up on Poppy Hill / Kokuriko Zaka Kara (Горо Миядзаки) [2011, аниме, мультфильм, драма, BDRip 1080p] [HEVC] [DUB] [Reanimedia] [MVO] [Омикрон] торрент
 


Похожие раздачи

Pupkin_Blabla

post 13-Фев-20 09:01 (спустя 4 месяца 8 дней)

С дорожкой №1 точно всё хорошо? У меня голосовой канал еле слышен.

Текущее время: 20-Сен 13:21

Часовой пояс: GMT + 3



Вы не можете начинать темы
Вы не можете отвечать на сообщения
Вы не можете редактировать свои сообщения
Вы не можете удалять свои сообщения
Вы не можете голосовать в опросах
Вы не можете прикреплять файлы к сообщениям
Вы не можете скачивать файлы