Loading...
Error
 

Скачать торрент (Synthwave, Synthpop, Lo-fi) Dead Astronauts - Silhouettes Redux - 2021, [WEB] [FLAC, tracks, lossless]

 
Автор Сообщение

Myster_Ya

post 13-Янв-22 22:39

Dead Astronauts - Silhouettes Redux

pic
Жанр: Synthwave, Synthpop, Lo-fi
Носитель: WEB
Год издания диска: 2021.12.03
Издатель (лейбл): NewRetroWave
Страна: USA
Аудиокодек: FLAC
Тип рипа: tracks
Битрейт аудио: lossless
Продолжительность: 00:49:59
Источник: deezer.com
Треклист:
01. Low Light (S Y Z Y G Y X Remix) [04:33]
02. Strangers in a Room (Cult Of Alia Remix) [04:31]
03. Forgetting Me (Outerspace Version Ft. Steve Monti) [05:42]
04. Thorns (The Rain Within Remix) [04:25]
05. She Haunts Me (CIRQUE D'ESS Remix) [04:25]
06. Chauffeur and the Flame (Mechanimal Remix) [04:24]
07. Missing Person (ULTRA SUNN Remix) [04:38]
08. Missing Person (Mecha Maiko Remix) [04:31]
09. Pain, I Know (Camlann Remix) [03:31]
10. Cage (Dead Lights Remix) [04:47]
11. These Hands (Crying Vessel Remix) [04:27]
Quality control log

Код:



PERFORMER: auCDtect Task Manager, ver. 1.6.0 RC1 build 1.6.0.1
Copyright (c) 2008-2010 y-soft. All rights reserved
http://y-soft.org

ANALYZER: auCDtect: CD records authenticity detector, version 0.8.2
Copyright (c) 2004 Oleg Berngardt. All rights reserved.
Copyright (c) 2004 Alexander Djourik. All rights reserved.

FILE: 11 These Hands (Crying Vessel Remix).flac
  Size: 33529209 Hash: 93675ADDCA174D800CC66FF36AD096A2 Accuracy: -m0
  Conclusion: CDDA 100%
  Signature: F4EA08D155FD46DC068A8C15B900233DB8AAC5CE
FILE: 10 Cage (Dead Lights Remix).flac
  Size: 34742517 Hash: D6E915C5731B055453D908313F2104E0 Accuracy: -m0
  Conclusion: MPEG 95%
  Signature: A052EC7CED1B56FEC8BC89C9DDB0FE9D0B00B4F4
FILE: 09 Pain, I Know (Camlann Remix).flac
  Size: 27070907 Hash: 47FAE25495D710EF92D141C8568F5DF4 Accuracy: -m0
  Conclusion: CDDA 100%
  Signature: E16A7D97EF418C974444D4807BF31F3A89C0DFEC
FILE: 08 Missing Person (Mecha Maiko Remix).flac
  Size: 29028041 Hash: 197FE15936B235363BF8F9338055FEF5 Accuracy: -m0
  Conclusion: MPEG 95%
  Signature: 7FCAFDD5F8C981C1A78BF5D04C6E2AA4D3F66458
FILE: 07 Missing Person (Ultra Sunn Remix).flac
  Size: 30442086 Hash: FE72ED9BC18BD06D5BFEAB305B8CA548 Accuracy: -m0
  Conclusion: CDDA 100%
  Signature: 6800435E0F269EBE51CE57B9F5CE5702A15E7639
FILE: 06 Chauffeur and the Flame (Mechanimal Remix).flac
  Size: 33916124 Hash: 8C162BEA54B76BC51C232819F0D0EEFA Accuracy: -m0
  Conclusion: CDDA 99%
  Signature: 960213878D0B44267885807B78BD081F060C1F8C
FILE: 05 She Haunts Me (Cirque D'ess Remix).flac
  Size: 30985231 Hash: 57D764E693A1133744E4CFE37FD34E0B Accuracy: -m0
  Conclusion: CDDA 100%
  Signature: 52D9980DDCEE8C4515A07D79896735D8A05A9049
FILE: 04 Thorns (The Rain Within Remix).flac
  Size: 31795422 Hash: D54B64E919E55D8A91ACBAE989F1AF30 Accuracy: -m0
  Conclusion: MPEG 95%
  Signature: 958F453716184C4AB20592DDFD40CE6D0D28C0B7
FILE: 03 Forgetting Me (Outerspace Version).flac
  Size: 41447157 Hash: 09861141D9BBBD7A7849FCA3F4E26B11 Accuracy: -m0
  Conclusion: CDDA 100%
  Signature: 5960056ADABD447D530A9101E9A976FE20E042A7
FILE: 02 Strangers in a Room (Cult of Alia Remix).flac
  Size: 31555211 Hash: 4D01D14D82D4F1CE1B08668E3372C5AD Accuracy: -m0
  Conclusion: MPEG 95%
  Signature: B44353770386DC1C0F52D314FF649E849A062E77
FILE: 01 Low Light (S Y Z Y G Y X Remix).flac
  Size: 28941377 Hash: EABBED610B708F6500DA9B470BD0716B Accuracy: -m0
  Conclusion: MPEG 95%
  Signature: 913BA722782B3F0AE06E3EAA970502E774298C87

 
Dinamyc Range

Код:

foobar2000 1.6.8 / Dynamic Range Meter 1.1.1
log date: 2022-01-01 21:29:02

--------------------------------------------------------------------------------
Analyzed: Dead Astronauts feat. Steve Monti / Silhouettes Redux (1)
          Dead Astronauts / Silhouettes Redux (2-11)
--------------------------------------------------------------------------------

DR         Peak         RMS     Duration Track
--------------------------------------------------------------------------------
DR4       -0.36 dB    -6.09 dB      5:43 03-Forgetting Me (Outerspace Version)
DR7       -0.36 dB    -8.71 dB      4:34 01-Low Light (S Y Z Y G Y X Remix)
DR5       -0.36 dB    -7.23 dB      4:31 02-Strangers in a Room (Cult of Alia Remix)
DR6       -0.51 dB    -8.34 dB      4:26 04-Thorns (The Rain Within Remix)
DR6       -0.62 dB    -8.13 dB      4:26 05-She Haunts Me (Cirque D'ess Remix)
DR7       -0.51 dB    -8.29 dB      4:24 06-Chauffeur and the Flame (Mechanimal Remix)
DR6       -0.36 dB    -6.83 dB      4:38 07-Missing Person (Ultra Sunn Remix)
DR7       -0.36 dB    -8.87 dB      4:32 08-Missing Person (Mecha Maiko Remix)
DR5       -0.36 dB    -6.05 dB      3:31 09-Pain, I Know (Camlann Remix)
DR5       -0.51 dB    -6.78 dB      4:48 10-Cage (Dead Lights Remix)
DR5       -0.36 dB    -7.45 dB      4:27 11-These Hands (Crying Vessel Remix)
--------------------------------------------------------------------------------

Number of tracks:  11
Official DR value: DR6

Samplerate:        44100 Hz
Channels:          2
Bits per sample:   16
Bitrate:           997 kbps
Codec:             FLAC
================================================================================


Dead Astronauts (2021-12-03) Silhouettes Redux (FLAC 16 bit).torrent
Трекер: Зарегистрирован

magnet ссылка

 


Скачать .torrent

14 KB

Статус: проверено (by Myster_Ya в 13-Янв-22 22:39)
Зарегистрирован: 13-Янв-22 22:39
Скачан: 3 раза
Размер: 337 MB | 
Поблагодарили:
Скачать (Synthwave, Synthpop, Lo-fi) Dead Astronauts - Silhouettes Redux - 2021, [WEB] [FLAC, tracks, lossless] торрент
 


Похожие раздачи

Текущее время: 16-Янв 13:12

Часовой пояс: GMT + 3



Вы не можете начинать темы
Вы не можете отвечать на сообщения
Вы не можете редактировать свои сообщения
Вы не можете удалять свои сообщения
Вы не можете голосовать в опросах
Вы не можете прикреплять файлы к сообщениям
Вы не можете скачивать файлы