Loading...
Error
 

Скачать торрент (Hard Rock) Robin Red - Robin Red (Avalon, MICP-11644, Japan) - 2021 [FLAC, image +.cue, lossless]

 
Автор Сообщение

trygg

post 21-Июн-22 18:15


Robin Red - Robin Red


pic
Год издания: 2021
Страна: Sweden pic
Жанр: Hard Rock
Продолжительность: 00:52:03
Лейбл издания: Avalon
Страна-выпуска диска: Japan pic
Номер по каталогу: MICP-11644
Формат: FLAC
Битрейт аудио: Lossless
Тип рипа: image +.cue
Наличие сканов в содержимом раздачи: да

pic
Трэклист
pic
01. Don't Leave Me (With A Broken Heart) (4:48)
02. (I'm A) Bad Habit (3:13)
03. Everlyn (3:21)
04. Freedom (4:31)
05. Midnight Rain (4:55)
06. Can't Get Enough (3:53)
07. Reason To Survive (3:42)
08. Heart Of Stone (3:22)
09. Nitelife (3:57)
10. Head Over Heels (4:05)
11. Living Dead (4:21)
12. Living For (4:10)
13. Don't Leave Me (With A Broken Heart) (Alternate Version) (3:50)

pic
Лог создания рипа

Код:

X Lossless Decoder version 20211018 (154.0)

XLD extraction logfile from 2022-05-20 20:46:20 +1000

Robin Red / Robin Red [Japan Edition]

Used drive : HL-DT-ST DVDRW  GX50N (revision RR06)
Media type : Pressed CD

Ripper mode             : XLD Secure Ripper
Disable audio cache     : OK for the drive with a cache less than 1375KiB
Make use of C2 pointers : NO
Read offset correction  : 6
Max retry count         : 20
Gap status              : Analyzed, Appended

TOC of the extracted CD
     Track |   Start  |  Length  | Start sector | End sector
    ---------------------------------------------------------
        1  | 00:00:00 | 04:47:70 |         0    |    21594   
        2  | 04:47:70 | 03:12:58 |     21595    |    36052   
        3  | 08:00:53 | 03:20:38 |     36053    |    51090   
        4  | 11:21:16 | 04:30:14 |     51091    |    71354   
        5  | 15:51:30 | 04:54:55 |     71355    |    93459   
        6  | 20:46:10 | 03:52:23 |     93460    |   110882   
        7  | 24:38:33 | 03:42:00 |    110883    |   127532   
        8  | 28:20:33 | 03:21:47 |    127533    |   142654   
        9  | 31:42:05 | 03:56:07 |    142655    |   160361   
       10  | 35:38:12 | 04:04:41 |    160362    |   178702   
       11  | 39:42:53 | 04:20:71 |    178703    |   198273   
       12  | 44:03:49 | 04:09:37 |    198274    |   216985   
       13  | 48:13:11 | 03:49:64 |    216986    |   234224   

AccurateRip Summary (DiscID: 001912a7-00fa4716-ba0c330d)
    Track 01 : OK (v2, confidence 1/1)
    Track 02 : OK (v2, confidence 1/1)
    Track 03 : OK (v2, confidence 1/1)
    Track 04 : OK (v2, confidence 1/1)
    Track 05 : OK (v2, confidence 1/1)
    Track 06 : OK (v2, confidence 1/1)
    Track 07 : OK (v2, confidence 1/1)
    Track 08 : OK (v2, confidence 1/1)
    Track 09 : OK (v2, confidence 1/1)
    Track 10 : OK (v2, confidence 1/1)
    Track 11 : OK (v2, confidence 1/1)
    Track 12 : OK (v2, confidence 1/1)
    Track 13 : OK (v2, confidence 1/1)
        ->All tracks accurately ripped.

All Tracks
    Filename : /Volumes/Seagate Backup Plus Drive/Music/1 My COLLECTION/Robin Red/2021 - Robin Red/Robin Red [Japan Edition].flac
    CRC32 hash (test run)    : 78A12DB5
    CRC32 hash               : 78A12DB5
    CRC32 hash (skip zero)   : 7BDA8844
    Statistics
        Read error                           : 0
        Jitter error (maybe fixed)           : 0
        Retry sector count                   : 0
        Damaged sector count                 : 0

Track 01
    Pre-gap length : 00:02:00

    CRC32 hash (test run)    : 9ACCC344
    CRC32 hash               : 9ACCC344
    CRC32 hash (skip zero)   : 8A963190
    AccurateRip v1 signature : 72725B7D
    AccurateRip v2 signature : CD8E4E07
        ->Accurately ripped (v2, confidence 1/1)
    Statistics
        Read error                           : 0
        Jitter error (maybe fixed)           : 0
        Retry sector count                   : 0
        Damaged sector count                 : 0

Track 02

    CRC32 hash (test run)    : EAA8C511
    CRC32 hash               : EAA8C511
    CRC32 hash (skip zero)   : 77560123
    AccurateRip v1 signature : A26D5BBC
    AccurateRip v2 signature : 974F4FF2
        ->Accurately ripped (v2, confidence 1/1)
    Statistics
        Read error                           : 0
        Jitter error (maybe fixed)           : 0
        Retry sector count                   : 0
        Damaged sector count                 : 0

Track 03

    CRC32 hash (test run)    : EC8E9D91
    CRC32 hash               : EC8E9D91
    CRC32 hash (skip zero)   : 57096528
    AccurateRip v1 signature : 9F8ACBEB
    AccurateRip v2 signature : 123C50DB
        ->Accurately ripped (v2, confidence 1/1)
    Statistics
        Read error                           : 0
        Jitter error (maybe fixed)           : 0
        Retry sector count                   : 0
        Damaged sector count                 : 0

Track 04

    CRC32 hash (test run)    : F439E1D7
    CRC32 hash               : F439E1D7
    CRC32 hash (skip zero)   : 42866F73
    AccurateRip v1 signature : 947579C7
    AccurateRip v2 signature : 57E3A922
        ->Accurately ripped (v2, confidence 1/1)
    Statistics
        Read error                           : 0
        Jitter error (maybe fixed)           : 0
        Retry sector count                   : 0
        Damaged sector count                 : 0

Track 05

    CRC32 hash (test run)    : 1D445179
    CRC32 hash               : 1D445179
    CRC32 hash (skip zero)   : F033FE9F
    AccurateRip v1 signature : 35189035
    AccurateRip v2 signature : BC8D2791
        ->Accurately ripped (v2, confidence 1/1)
    Statistics
        Read error                           : 0
        Jitter error (maybe fixed)           : 0
        Retry sector count                   : 0
        Damaged sector count                 : 0

Track 06

    CRC32 hash (test run)    : 28E4EFAB
    CRC32 hash               : 28E4EFAB
    CRC32 hash (skip zero)   : B64F4296
    AccurateRip v1 signature : 40CAA31D
    AccurateRip v2 signature : DD524D1B
        ->Accurately ripped (v2, confidence 1/1)
    Statistics
        Read error                           : 0
        Jitter error (maybe fixed)           : 0
        Retry sector count                   : 0
        Damaged sector count                 : 0

Track 07

    CRC32 hash (test run)    : 030361CC
    CRC32 hash               : 030361CC
    CRC32 hash (skip zero)   : 59223EB9
    AccurateRip v1 signature : 31B95EAE
    AccurateRip v2 signature : 3F02D6ED
        ->Accurately ripped (v2, confidence 1/1)
    Statistics
        Read error                           : 0
        Jitter error (maybe fixed)           : 0
        Retry sector count                   : 0
        Damaged sector count                 : 0

Track 08

    CRC32 hash (test run)    : 05940F9E
    CRC32 hash               : 05940F9E
    CRC32 hash (skip zero)   : 8D0631F5
    AccurateRip v1 signature : B9CED9BA
    AccurateRip v2 signature : A7286893
        ->Accurately ripped (v2, confidence 1/1)
    Statistics
        Read error                           : 0
        Jitter error (maybe fixed)           : 0
        Retry sector count                   : 0
        Damaged sector count                 : 0

Track 09

    CRC32 hash (test run)    : 1FA8702D
    CRC32 hash               : 1FA8702D
    CRC32 hash (skip zero)   : AE899173
    AccurateRip v1 signature : 2D5E4A0C
    AccurateRip v2 signature : 55CC3D2D
        ->Accurately ripped (v2, confidence 1/1)
    Statistics
        Read error                           : 0
        Jitter error (maybe fixed)           : 0
        Retry sector count                   : 0
        Damaged sector count                 : 0

Track 10

    CRC32 hash (test run)    : 75EE6166
    CRC32 hash               : 75EE6166
    CRC32 hash (skip zero)   : 40AC77A5
    AccurateRip v1 signature : CCB0AD5A
    AccurateRip v2 signature : 0218440B
        ->Accurately ripped (v2, confidence 1/1)
    Statistics
        Read error                           : 0
        Jitter error (maybe fixed)           : 0
        Retry sector count                   : 0
        Damaged sector count                 : 0

Track 11

    CRC32 hash (test run)    : E4827C79
    CRC32 hash               : E4827C79
    CRC32 hash (skip zero)   : 8F86E5A2
    AccurateRip v1 signature : 8C6D40D5
    AccurateRip v2 signature : 95543767
        ->Accurately ripped (v2, confidence 1/1)
    Statistics
        Read error                           : 0
        Jitter error (maybe fixed)           : 0
        Retry sector count                   : 0
        Damaged sector count                 : 0

Track 12

    CRC32 hash (test run)    : 29274AFB
    CRC32 hash               : 29274AFB
    CRC32 hash (skip zero)   : 9966CE27
    AccurateRip v1 signature : CE29CCC2
    AccurateRip v2 signature : E2836589
        ->Accurately ripped (v2, confidence 1/1)
    Statistics
        Read error                           : 0
        Jitter error (maybe fixed)           : 0
        Retry sector count                   : 0
        Damaged sector count                 : 0

Track 13
    Pre-gap length : 00:02:00

    CRC32 hash (test run)    : 595718B1
    CRC32 hash               : 595718B1
    CRC32 hash (skip zero)   : E3091392
    AccurateRip v1 signature : 125A610C
    AccurateRip v2 signature : 6650D488
        ->Accurately ripped (v2, confidence 1/1)
    Statistics
        Read error                           : 0
        Jitter error (maybe fixed)           : 0
        Retry sector count                   : 0
        Damaged sector count                 : 0

No errors occurred

End of status report
Индексная карта (non-compilant .cue)

Код:

REM GENRE "Hard Rock"
REM DATE "2021"
TITLE "Robin Red (Japan)"
PERFORMER "Robin Red"
REM DISCID BA0C330D
FILE "Robin Red - Robin Red (Japan).flac" WAVE
  TRACK 01 AUDIO
    TITLE "Don't Leave Me (With A Broken Heart)"
    INDEX 01 00:00:00
  TRACK 02 AUDIO
    TITLE "(I'm A) Bad Habit"
    INDEX 01 04:47:70
  TRACK 03 AUDIO
    TITLE "Everlyn"
    INDEX 01 08:00:53
  TRACK 04 AUDIO
    TITLE "Freedom"
    INDEX 01 11:21:16
  TRACK 05 AUDIO
    TITLE "Midnight Rain"
    INDEX 01 15:51:30
  TRACK 06 AUDIO
    TITLE "Can't Get Enough"
    INDEX 01 20:46:10
  TRACK 07 AUDIO
    TITLE "Reason To Survive"
    INDEX 01 24:38:33
  TRACK 08 AUDIO
    TITLE "Heart Of Stone"
    INDEX 01 28:20:33
  TRACK 09 AUDIO
    TITLE "Nitelife"
    INDEX 01 31:42:05
  TRACK 10 AUDIO
    TITLE "Head Over Heels"
    INDEX 01 35:38:12
  TRACK 11 AUDIO
    TITLE "Living Dead"
    INDEX 01 39:42:53
  TRACK 12 AUDIO
    TITLE "Living For"
    INDEX 01 44:03:49
  TRACK 13 AUDIO
    TITLE "Don't Leave Me (With A Broken Heart) (Alternate Version)"
    INDEX 00 48:11:11
    INDEX 01 48:13:11

pic
информация о релизе:
Шведский вокалист Robin Red (Degreed) объявил о выпуске своего дебютного сольного, одноименного альбома, 17 сентября 2021 года на лейбле Frontiers.
Альбом был написан Робином вместе с Дэйвом Далоне из шведских рокеров HEAT, который также продюсировал и играл на гитарах на альбоме.
Робин Ред - шведский рок-певец, наиболее известный как один из основателей популярного мелодик-хард-рока. С Degreed он гастролировал по всей Европе в поддержку пяти хорошо принятых студийных альбомов и в настоящее время работает над их шестым студийным альбомом. Кроме того, Робин также был участником шведской версии American Idol в 2008 году, заняв первое место.

В 2020 году Робин Ред, ведущий вокалист шведской группы Degreed, решил начать сольную карьеру и отправил свои демо в Frontiers Music Srl, которые, мягко говоря, были в восторге от услышанного.
«Когда я писал этот альбом, я думал, что он должен быть как можно более классическим роком, я думаю, ха-ха. Думайте об этом как о выпуске 1983 года. Я думаю, вы услышите там немного Foreigner, Джона Уэйта, Брайана Адамса и Рика Спрингфилда».
pic
для ознакомления:


pic
pic

Robin Red - Robin Red (Avalon, MICP-11644, Japan) - 2021 FLAC.torrent
Трекер: Зарегистрирован

magnet ссылка

 


Скачать .torrent

16 KB

Статус: проверено (by Myster_Ya в 21-Июн-22 18:47)
Зарегистрирован: 21-Июн-22 18:15
Скачан: 6 раз
Размер: 387 MB | 
Поблагодарили:
Скачать (Hard Rock) Robin Red - Robin Red (Avalon, MICP-11644, Japan) - 2021 [FLAC, image +.cue, lossless] торрент
 


Похожие раздачи

Текущее время: 29-Июн 04:06

Часовой пояс: GMT + 3



Вы не можете начинать темы
Вы не можете отвечать на сообщения
Вы не можете редактировать свои сообщения
Вы не можете удалять свои сообщения
Вы не можете голосовать в опросах
Вы не можете прикреплять файлы к сообщениям
Вы не можете скачивать файлы